#TITLE:Through the Fire and Flames;
#SUBTITLE:;
#ARTIST:Dragon Force;
#TITLETRANSLIT:;
#SUBTITLETRANSLIT:;
#ARTISTTRANSLIT:;
#CREDIT:;
#BANNER:Through the fire and flames_logo.jpg;
#BACKGROUND:Through the fire and flames_bg.jpg;
#LYRICSPATH:;
#CDTITLE:Lan.png;
#MUSIC:Through the Fire and Flames.mp3;
#OFFSET:-0.040;
#SAMPLESTART:100.000;
#SAMPLELENGTH:12.000;
#SELECTABLE:YES;
#BPMS:0.000=200.060;
#STOPS:;
#BGCHANGES:;
// cache tags:
#FIRSTBEAT:4.000;
#LASTBEAT:631.750;
#SONGFILENAME:Songs/Super Dancer Online/Through the Fire and Flames[sdo]/Through the Fire and Flames.sm;
#HASMUSIC:1;
#HASBANNER:1;
#MUSICLENGTH:191.755;
// end cache tags

//---------------dance-single - sky----------------
#NOTES:
     dance-single:
     sky:
     Challenge:
     11:
     1.000,1.000,1.000,0.042,0.824,1505.000,461.000,8.000,0.000,8.000:

0000
0000
0000
0000
,
1100
0010
0001
0010
0100
1000
0100
0010
,
0001
0010
0100
1000
0100
0010
1100
0010
,
0101
1000
0100
0010
0001
0010
0100
1000
,
0100
0010
0001
0010
0100
1000
0100
0010
,
2001
0010
0100
0010
0001
0010
0100
0010
,
0001
0010
0100
0010
0001
0010
0100
0010
,
3011
0100
1000
0100
0010
0001
0010
0100
,
1020
0100
0001
0100
1000
0100
0001
0100
,
1031
0100
0010
0001
0010
0100
1000
0100
,
0010
0001
0010
0100
1000
0100
0011
0001
,
1100
0100
0010
0001
0010
0100
1000
0100
,
0010
0001
0010
0100
1000
0100
0010
0001
,
0201
0010
1000
0010
0001
0010
1000
0010
,
0001
0010
1000
0010
0001
0010
1000
0010
,
0311
1000
0100
0010
0001
0010
0100
1000
,
0110
1000
0100
0010
0100
0010
0001
0010
1100
0010
0100
1000
0100
0010
0001
0010
1100
0010
0001
0010
0100
1000
0100
0010
0001
0010
0100
0010
0100
0010
0001
0010
,
1100
0010
0100
0010
0001
0100
1000
0100
,
0010
1000
0001
0010
0100
0001
1000
0100
,
0001
1000
0100
0001
0010
0100
1000
0100
,
0001
1000
0010
0001
1000
0100
0001
0010
,
0001
1000
0010
1000
0001
0100
1000
0100
,
0001
1000
0010
1000
0101
0010
1000
0001
,
0010
1000
0100
0001
0010
1000
0100
0001
0010
1000
0100
0001
0010
1000
0001
0100
,
1000
0100
1000
0100
1000
0100
1000
0100
1000
0001
0010
0001
0010
0001
0010
0001
,
0010
0001
0100
1000
0001
0010
1000
0001
,
0100
1000
0001
0010
1000
0100
0010
0100
,
0001
1000
0001
0010
1000
0001
0010
0100
,
0001
1000
0100
0001
1000
0010
0001
1000
,
0100
0001
1000
0100
0001
1000
0001
0010
,
1000
0001
0100
1000
0001
0010
0100
1000
,
0001
0100
0010
1000
0100
0010
1000
0001
0100
0001
0010
1000
0100
0001
0010
1000
,
0100
0010
0100
0010
0100
0010
0100
0010
1000
0001
1000
0001
1000
0001
1000
0001
,
1000
0001
0010
0001
0100
0001
1000
0001
,
1000
0100
1000
0010
1000
0001
1000
0010
,
0110
1000
0100
0001
0100
0010
1000
0100
,
0001
0010
0001
0010
1000
0001
0100
0001
,
1100
0010
0100
0010
0100
1000
0001
0100
,
0001
0010
0001
0010
1000
0001
0100
0001
,
1100
0001
0010
0100
0010
1000
0100
0010
0101
1000
0100
0001
0010
0100
0010
0001
1100
0010
0010
0010
0101
1000
0100
0100
0010
0000
0000
0000
0000
0000
0000
0000
,
1001
0100
0010
0001
0010
0100
0010
0001
0110
1000
0100
0010
0001
0010
0100
1000
,
0011
1100
0110
1100
0011
0110
1010
0101
,
0011
1010
0110
0101
1010
0110
1001
0110
,
1001
1010
0101
0110
1100
0011
0110
1100
,
0101
0011
1100
0011
1010
0110
0011
1100
,
0110
0101
1010
0110
0101
0011
1100
0011
,
1100
0011
1010
1100
0011
0110
1010
0110
,
1001
0110
0101
0110
1100
0011
0110
1100
,
0110
0000
0011
0000
1100
0001
0010
0100
1000
0001
0100
0010
1000
0001
0100
0010
,
1000
0100
0001
0100
0010
0100
1000
0010
0100
1000
0001
0100
0010
0100
1000
0001
,
0100
0010
0001
1000
0010
0100
1000
0001
0100
1000
0001
0100
0010
0100
1000
0010
,
0100
0010
0001
1000
0010
0001
1000
0010
0100
1000
0001
0010
0100
1000
0010
0100
,
1000
0001
0010
1000
0100
0010
0001
1000
0010
0100
1000
0010
0100
1000
0001
0100
,
0010
1000
0001
0010
0100
0001
1000
0100
0010
0100
1000
0010
0100
0010
0001
0100
,
1000
0100
0010
0001
0100
1000
0001
0100
0010
0100
1000
0001
0100
1000
0010
0100
,
1000
0001
1000
0001
1000
0001
1000
0001
0010
0100
0010
0100
0010
0100
0010
0100
,
1000
0010
1000
0101
0010
1100
0100
0011
,
1100
0011
1010
1100
0011
1100
0101
0011
,
1100
0011
1010
0110
0011
1100
0101
0110
,
1100
0011
1010
0110
0011
0110
1010
0101
,
1000
0001
0010
0100
0010
0001
1000
0100
0001
1000
0010
0100
0001
1000
0010
0100
,
0011
1010
0110
0011
1010
0110
1001
0110
,
1100
0011
0110
1010
0101
0110
0011
1100
,
1010
1010
1010
1010
0101
0101
0101
0101
,
1100
0010
0001
0100
,
1001
0100
0101
1000
0110
0010
1001
0010
,
1100
0010
1001
0100
0011
1000
0101
0010
,
1001
0100
1010
0001
1100
0010
0101
1000
,
0011
0100
1001
0010
0101
1000
1001
0010
,
1001
0100
0011
1000
0110
0001
1010
0100
,
0011
1000
0110
0001
1010
0100
1001
0010
,
1100
0001
1010
0100
0011
1000
0101
0010
,
1000
0100
1000
0100
1000
0100
1000
0100
0001
0010
0001
0010
0001
0010
0001
0010
,
1100
0001
1010
0100
0011
1000
0101
0010
,
1001
0100
0011
1000
0101
0010
1100
0001
,
0110
0001
1010
0100
1001
0010
1100
0001
,
1010
0100
0011
1000
0101
0010
1100
0001
,
0110
1000
0101
0010
1100
0001
1001
0010
,
1100
0001
1010
0100
0011
1000
0101
0010
,
1000
0010
0001
0100
0010
1000
0001
0100
0001
1000
0010
0100
0010
0001
0100
1000
,
0220
0000
0000
0000
,
1331
0100
0011
1000
0101
0010
1100
0001
,
0110
0001
1010
0100
0011
1000
0101
0010
,
1001
0100
1010
0100
0011
1000
0110
0001
,
1100
0010
0101
0010
1001
0100
0011
1000
,
0110
0000
0001
0000
1010
0000
0100
0000
1000
0001
0100
0010
0001
1000
0010
0100
,
1000
0001
0100
0010
0001
1000
0100
0010
0100
0001
1000
0010
0100
0001
1000
0010
,
0100
0001
1000
0010
0001
0100
1000
0010
1000
0001
0100
0010
0100
0001
0010
1000
,
0100
0001
0010
1000
0100
0001
0010
1000
0100
0010
0001
1000
0100
0001
0010
1000
,
0101
0010
1100
0001
0011
0100
1010
0100
,
0011
1000
0101
0010
1100
0001
1010
0100
,
0011
1000
0101
0010
1100
0001
0101
0010
,
1100
0001
0101
0010
1001
0100
0011
1000
,
0101
1000
0010
1000
0100
0010
0101
0010
1000
0100
0010
0100
0001
1000
0100
0010
,
1101
0000
0000
0000
,
1100
0011
0110
1010
0101
0110
1100
0011
,
0110
1010
0101
0110
1100
0011
0110
1100
,
0101
1010
1001
0110
0011
1100
0110
0101
,
1010
1100
0011
1010
0101
0011
1100
0011
,
1010
0101
0011
1100
0110
0011
1010
0110
,
0011
1001
0110
0101
1010
0110
1001
0110
,
1000
0100
0001
0010
1000
0001
0100
0010
0001
1000
0010
0100
0001
1000
0100
0010
,
1000
0001
0100
0010
0100
1000
0001
0010
1000
0001
0010
0100
1000
0001
0100
0010
,
1001
0010
1100
0001
0110
1000
0011
0100
,
1010
0001
0110
1000
0011
0100
1001
0010
,
0101
0010
1100
0001
1010
0100
1001
0010
,
1100
0001
0110
1000
0011
0100
1001
0010
,
0101
1000
0011
0100
1001
0010
1010
0100
,
1001
0010
1100
0001
0110
1000
0011
0100
,
1001
0100
0010
0100
1000
0010
0001
0010
0101
0010
1000
0100
0001
0010
0100
0001
,
1010
0000
1010
0000
0101
0000
0101
0101
,
0202
0000
0000
0000
,
0000
0000
0000
1010
,
1313
0000
0000
0000
0100
0010
0001
0100
1000
0001
0010
0000
0000
0000
0000
0000
,
0000
0000
0000
0000
0000
0000
0010
0001
0100
1000
0001
0000
1100
0000
0000
0000
,
0011
0000
0000
0000
0000
0000
1000
0100
0010
0001
1000
0000
0000
0000
0000
0000
,
0000
0000
0000
0000
0000
0000
1000
0100
0001
0010
0100
0000
0000
0000
0110
0000
,
1001
0000
0000
0000
0000
0000
0100
0001
1000
0010
0100
0000
0000
0000
0000
0000
,
0000
0000
0000
0000
0000
0000
0010
1000
0001
0100
0010
0000
0000
0000
0000
0000
,
2110
0000
0000
0000
0000
0000
0010
0001
0100
0010
0001
0000
0000
0000
0000
0000
,
0100
0010
0100
0010
0100
0010
0100
0010
0001
0010
0001
0010
0001
0010
0001
0010
,
3000
0100
0001
0100
0010
0001
0100
0010
1000
0100
0001
0010
0100
0001
0010
1000
,
0110
0011
1010
0110
0011
1100
0101
0110
,
1100
0011
1010
0110
0011
1010
0110
0011
,
1100
0101
1010
0110
0011
1010
0101
0110
,
1001
0101
0011
1100
0101
0011
1100
0011
,
0110
0101
1010
0110
1001
0110
1100
0011
,
1010
0110
0011
1100
0101
0011
1100
0011
,
0110
1010
0101
0110
1100
0011
1001
0011
,
1100
0011
1010
1100
0011
1010
0101
0011
,
1000
0001
0010
0100
0001
1000
0100
0010
1000
0001
0100
0010
1000
0001
0100
0010
,
1000
0100
0001
0010
1000
0001
0100
0010
1100
0000
0001
0000
0110
0000
1000
0000
,
0101
0010
1100
0001
0110
1000
0101
0010
,
1100
0001
0110
1000
0101
0010
0011
1000
,
0001
1000
0010
0100
1000
0001
0100
0010
0100
0010
1000
0001
0100
1000
0001
0010
,
1000
0001
0100
0010
0001
0100
1000
0100
0010
0001
1000
0100
0010
1000
0001
0100
,
1010
0100
0011
1000
0101
0010
1100
0001
,
0110
1000
0101
0010
1001
0100
0011
1000
,
0011
0000
1000
0000
0110
0000
0001
0000
1010
0000
0100
0000
1001
0100
0010
0001
,
1000
0010
0100
0001
1000
0010
0100
0001
0010
1000
0100
0001
0010
1000
0100
0001
,
1000
0100
0010
0001
1000
0100
1001
0000
0000
0000
1100
0000
0000
0000
0011
0000
,
1100
0001
0110
1000
0011
0100
1010
0100
,
0011
1000
0101
0010
1001
0100
1010
0100
,
1001
0100
1010
0001
0011
0100
1100
0001
,
0110
0001
1100
0010
0101
1000
0110
0001
,
1010
0100
0011
0100
1100
0010
1001
0100
,
0011
1000
0110
0001
1100
0010
0101
0010
,
1100
0001
0110
1000
1100
0001
1010
0100
,
0011
1000
0110
0001
1010
0100
1100
0001
,
0100
1000
0001
0010
1000
0001
0100
0010
1000
0010
0001
0100
0010
1000
0001
0100
,
1000
0001
0100
0010
1000
0001
0100
0010
1100
0000
0001
0000
1010
0000
0100
0000
,
0011
1000
0110
0001
1100
0010
0101
1000
,
0110
0001
1100
0010
0101
1000
0110
0001
,
1010
0100
0011
1000
1100
0001
0110
1000
,
0110
0001
1010
0100
0011
1000
0110
0001
,
1010
0100
0011
1000
0110
0001
1100
0010
,
1100
0001
0110
1000
0101
0010
1001
0100
,
0011
0000
1000
0000
0110
0000
0001
0000
1000
0010
0100
0001
0010
1000
0001
0100
;

//---------------dance-single - 专家----------------
#NOTES:
     dance-single:
     专家:
     Hard:
     10:
     1.000,1.000,1.000,0.104,0.628,1387.000,356.000,20.000,0.000,11.000:



0000
0000
0000
0000
,
1100
0001
0010
0001
1000
0010
0100
0001
,
0010
1000
0100
0001
0010
0100
1001
0010
,
0110
1000
0001
0100
1000
0010
0001
0100
,
0010
1000
0010
0001
0100
1000
0001
0010
,
2100
0010
0001
0010
0001
0010
0001
0100
,
0001
0010
0001
0010
0001
0010
0001
0100
,
3001
0100
1000
0100
0010
0001
0010
0100
,
1002
0100
0100
1000
0100
0100
1000
0100
,
0103
1000
0010
0001
0100
0010
1000
0001
,
0100
0001
0010
0001
1000
0010
0101
1000
,
0101
0100
1000
0001
0100
0010
1000
0001
,
0100
0010
0001
0100
1000
0010
0100
0001
,
0210
0010
0001
0010
0010
0001
0010
0010
,
0001
0010
0010
0001
0010
0010
0001
0010
,
0310
1000
0010
0001
0100
0010
0001
1000
,
0110
1001
0110
0000
,
1100
0010
0100
0010
0001
0100
1000
0100
,
0010
1000
0001
0010
0100
0001
1000
0100
,
0001
1000
0100
0001
0010
0100
1000
0100
,
0001
1000
0010
0001
1000
0100
0001
0010
,
0001
1000
0010
1000
0001
0100
1000
0100
,
0001
1000
0010
1000
0101
0010
1000
0001
,
0010
1000
0100
0001
0010
1000
0100
0001
0010
1000
0100
0001
0010
1000
0001
0100
,
2020
0000
0000
0000
,
3130
0001
0100
1000
0001
0010
1000
0001
,
0100
1000
0001
0010
1000
0100
0010
0100
,
0001
1000
0001
0010
1000
0001
0010
0100
,
0001
1000
0100
0001
1000
0010
0001
1000
,
0100
0001
1000
0100
0001
1000
0001
0010
,
1000
0001
0100
1000
0001
0010
0100
1000
,
0001
0100
0010
1000
0100
0010
1000
0001
0100
0001
0010
1000
0100
0001
0010
1000
,
0220
0000
0000
0000
,
1330
0000
0001
0001
0001
0001
0001
0001
,
1000
1000
1000
1000
1000
1000
1000
1000
,
0110
0100
0100
0100
0100
0100
0100
0100
,
0001
0001
0001
0001
0001
0001
0001
0001
,
1100
0100
0100
0100
0100
0100
0100
0100
,
0001
0001
0001
0001
0001
0001
0001
0001
,
1100
0010
0101
0010
1100
0001
0110
0010
,
1001
0100
0010
0001
0010
0100
0010
0001
0110
1000
0100
0010
0001
0010
0100
1000
,
0011
1000
0110
1000
0011
0100
1010
0001
,
0011
1000
0110
0001
1010
0100
1001
0100
,
1001
0010
0101
0010
1100
0001
0110
1000
,
0101
0010
1100
0010
1010
0100
0011
1000
,
0110
0100
1010
0010
0101
0010
1100
0010
,
0101
0010
1010
0100
0011
0100
1010
0100
,
1001
0010
0101
0010
1100
0001
0110
1000
,
0110
0000
0010
0000
1100
0001
0010
0100
1000
0001
0100
0010
1000
0001
0100
0010
,
1000
0100
0001
0100
0010
0100
1000
0010
0100
1000
0001
0100
0010
0100
1000
0001
,
0100
0010
0001
1000
0010
0100
1000
0001
0100
1000
0001
0100
0010
0100
1000
0010
,
0100
0010
0001
1000
0010
0001
1000
0010
0100
1000
0001
0010
0100
1000
0010
0100
,
1000
0001
0010
1000
0100
0010
0001
1000
0010
0100
1000
0010
0100
1000
0001
0100
,
0010
1000
0001
0010
0100
0001
1000
0100
0010
0100
1000
0010
0100
0010
0001
0100
,
1000
0100
0010
0001
0100
1000
0001
0100
0010
0100
1000
0001
0100
1000
0010
0100
,
0022
0000
0000
0000
,
1033
0110
1000
0101
0010
1100
0100
0011
,
1100
0010
1010
0100
0011
0100
0101
0010
,
1100
0010
1010
0100
0011
0100
0101
0010
,
1100
0010
1010
0100
0011
0100
1010
0100
,
1000
0001
0010
0100
0010
0001
1000
0100
0001
1000
0010
0100
0001
1000
0010
0100
,
0011
1010
0110
0011
1010
0110
1001
0110
,
1100
0011
0110
1010
0101
0110
0011
1100
,
0022
0000
0000
0000
,
1133
0010
0001
0100
,
1001
0100
0101
1000
0110
0010
1001
0010
,
1100
0010
1001
0100
0011
1000
0101
0010
,
1001
0100
1010
0001
1100
0010
0101
1000
,
0011
0100
1001
0010
0101
1000
1001
0010
,
1001
0100
0011
1000
0110
0001
1010
0100
,
0011
1000
0110
0001
1010
0100
1001
0010
,
1100
0001
1010
0100
0011
1000
0101
0010
,
0022
0000
0000
0000
,
1133
0001
1010
0100
0011
1000
0101
0010
,
1001
0100
0011
1000
0101
0010
1100
0001
,
0110
0001
1010
0100
1001
0010
1100
0001
,
1010
0100
0011
1000
0101
0010
1100
0001
,
0110
1000
0101
0010
1100
0001
1001
0010
,
1100
0001
1010
0100
0011
1000
0101
0010
,
1000
0010
0001
0100
0010
1000
0001
0100
0001
1000
0010
0100
0010
0001
0100
1000
,
0220
0000
0000
0000
,
1331
0100
0011
1000
0101
0010
1100
0001
,
0110
0001
1010
0100
0011
1000
0101
0010
,
1001
0100
1010
0100
0011
1000
0110
0001
,
1100
0010
0101
0010
1001
0100
0011
1000
,
0110
0000
0001
0000
1010
0000
0100
0000
1000
0001
0100
0010
0001
1000
0010
0100
,
1000
0001
0100
0010
0001
1000
0100
0010
0100
0001
1000
0010
0100
0001
1000
0010
,
0100
0001
1000
0010
0001
0100
1000
0010
1000
0001
0100
0010
0100
0001
0010
1000
,
0100
0001
0010
1000
0100
0001
0010
1000
0100
0010
0001
1000
0100
0001
0010
1000
,
0101
0010
1100
0001
0011
0100
1010
0100
,
0011
1000
0101
0010
1100
0001
1010
0100
,
0011
1000
0101
0010
1100
0001
0101
0010
,
1100
0001
0101
0010
1001
0100
0011
1000
,
0101
1000
0010
1000
0100
0010
0101
0010
1000
0100
0010
0100
0001
1000
0100
0010
,
1101
0000
0000
0000
,
1100
0011
0110
1000
0101
0010
1100
0010
,
0110
1000
0101
0010
1100
0010
0110
1000
,
0101
0010
1001
0100
0011
1000
0110
0001
,
1010
0100
0011
1000
0101
0010
1100
0010
,
1010
0100
0011
1000
0110
0001
1010
0100
,
0011
1000
0110
0001
1010
0100
1001
0010
,
1000
0100
0001
0010
1000
0001
0100
0010
0001
1000
0010
0100
0001
1000
0100
0010
,
1000
0001
0100
0010
0100
1000
0001
0010
1000
0001
0010
0100
1000
0001
0100
0010
,
1001
0010
1100
0001
0110
1000
0011
0100
,
1010
0001
0110
1000
0011
0100
1001
0010
,
0101
0010
1100
0001
1010
0100
1001
0010
,
1100
0001
0110
1000
0011
0100
1001
0010
,
0101
1000
0011
0100
1001
0010
1010
0100
,
1001
0010
1100
0001
0110
1000
0011
0100
,
1001
0100
0010
0100
1000
0010
0001
0010
0101
0010
1000
0100
0001
0010
0100
0000
,
2020
0000
0000
0000
,
3232
0000
0000
0000
,
0000
0000
0000
1010
,
1313
0000
0000
0000
0100
0010
0001
0100
1000
0001
0010
0000
0000
0000
0000
0000
,
0000
0000
0000
0000
0000
0000
0010
0001
0100
1000
0001
0000
1100
0000
0000
0000
,
0011
0000
0000
0000
0000
0000
1000
0100
0010
0001
1000
0000
0000
0000
0000
0000
,
0000
0000
0000
0000
0000
0000
1000
0100
0001
0010
0100
0000
0000
0000
0110
0000
,
1001
0000
0000
0000
0000
0000
0100
0001
1000
0010
0100
0000
0000
0000
0000
0000
,
0000
0000
0000
0000
0000
0000
0010
1000
0001
0100
0010
0000
0000
0000
0000
0000
,
2110
0000
0000
0000
0000
0000
0010
0001
0100
0010
0001
0000
0000
0000
0000
0000
,
0100
0100
0100
0100
0100
0100
0100
0100
0010
0010
0010
0010
0010
0010
0010
0010
,
3010
0100
0001
0100
0010
0001
0100
0010
1000
0100
0001
0010
0100
0001
0010
1000
,
0110
0001
1010
0100
0011
1000
0101
0100
,
1100
0001
1010
0100
0011
1000
0110
0001
,
1100
0001
1010
0100
0011
1000
0101
0010
,
1001
0100
0011
1000
0101
0010
1100
0010
,
0110
0001
1010
0100
1001
0100
1100
0001
,
1010
0100
0011
1000
0101
0010
1100
0001
,
0110
1000
0101
0010
1100
0010
1001
0010
,
1100
0010
1010
0100
0011
1000
0101
0010
,
1000
0001
0010
0100
0001
1000
0100
0010
1000
0001
0100
0010
1000
0001
0100
0010
,
1000
0100
0001
0010
1000
0001
0100
0010
1100
0000
0001
0000
0110
0000
1000
0000
,
0101
0010
1100
0001
0110
1000
0101
0010
,
1100
0001
0110
1000
0101
0010
0011
1000
,
0001
1000
0010
0100
1000
0001
0100
0010
0100
0010
1000
0001
0100
1000
0001
0010
,
1000
0001
0100
0010
0001
0100
1000
0100
0010
0001
1000
0100
0010
1000
0001
0100
,
1010
0100
0011
1000
0101
0010
1100
0001
,
0110
1000
0101
0010
1001
0100
0011
1000
,
0011
0000
1000
0000
0110
0000
0001
0000
1010
0000
0100
0000
1001
0100
0010
0001
,
1000
0010
0100
0001
1000
0010
0100
0001
0010
1000
0100
0001
0010
1000
0100
0001
,
1000
0100
0010
0001
1000
0100
1001
0000
0000
0000
1100
0000
0000
0000
0011
0000
,
1100
0001
0110
1000
0011
0100
1010
0100
,
0011
1000
0101
0010
1001
0100
1010
0100
,
1001
0100
1010
0001
0011
0100
1100
0001
,
0110
0001
1100
0010
0101
1000
0110
0001
,
1010
0100
0011
0100
1100
0010
1001
0100
,
0011
1000
0110
0001
1100
0010
0101
0010
,
1100
0001
0110
1000
1100
0001
1010
0100
,
0011
1000
0110
0001
1010
0100
1100
0001
,
0100
1000
0001
0010
1000
0001
0100
0010
1000
0010
0001
0100
0010
1000
0001
0100
,
1000
0001
0100
0010
1000
0001
0100
0010
1100
0000
0001
0000
1010
0000
0100
0000
,
0011
1000
0110
0001
1100
0010
0101
1000
,
0110
0001
1100
0010
0101
1000
0110
0001
,
1010
0100
0011
1000
1100
0001
0110
1000
,
0110
0001
1010
0100
0011
1000
0110
0001
,
1010
0100
0011
1000
0110
0001
1100
0010
,
1100
0001
0110
1000
0101
0010
1001
0100
,
0011
0000
1000
0000
0110
0000
0001
0000
1000
0010
0100
0001
0010
1000
0001
0100
;
